RuWarez - Скачать фильмы, игры, книги и многое другое
Depeche Mode - Music for the Masses (1987) [FLAC] - Версия для печати

+- RuWarez - Скачать фильмы, игры, книги и многое другое (http://ruwarez.net)
+-- Форум Загрузки (http://ruwarez.net/forumdisplay.php?fid=1)
+--- Форум Музыка (http://ruwarez.net/forumdisplay.php?fid=7)
+--- Темы: Depeche Mode - Music for the Masses (1987) [FLAC] (/showthread.php?tid=35)



Depeche Mode - Music for the Masses (1987) [FLAC] - Professor Chaos - 04-18-2019

[Изображение: uyn3ub69.jpg]

Audio Bitrate: ~800 kBit/s (44.1 kHz/16 Bit/s) | Audio Encoder: FLAC
Releaseyear: 1987 | Size: 358,8 MB | Notes: Discogs

Tracklist:
Код:
1 - Never Let Me Down Again - 4:48
2 - The Things You Said - 4:02
3 - Strangelove - 4:56
4 - Sacred - 4:47
5 - Little 15 - 4:18
6 - Behind The Wheel - 5:18
7 - I Want You Now - 3:44
8 - To Have And To Hold - 2:51
9 - Nothing - 4:18
10 - Pimpf - 5:25
11 - Agent Orange - 5:05
12 - Never Let Me Down Again (Aggro Mix) - 4:57
13 - To Have And To Hold (Spanish Taster) - 2:36
14 - Pleasure, Little Treasure (Glitter Mix) - 5:36

Log / CUE / NFO:
Код:
EAC extraction logfile from 19. November 2007, 0:59 for CD
Depeche Mode / Music For The Masses

Used drive  : PLEXTOR DVDR   PX-760A   Adapter: 1  ID: 0
Read mode   : Secure with NO C2, accurate stream, disable cache
Read offset correction : 30
Overread into Lead-In and Lead-Out : No

Used output format : E:\Program Files (x86)\FLAC\flac.exe   (User Defined Encoder)
                     128 kBit/s
                     Additional command line options :  -8 -V -T "ARTIST=%a" -T "TITLE=%t" -T "ALBUM=%g" -T "DATE=%y" -T "TRACKNUMBER=%n" -T "GENRE=%m" -T "COMMENT=EAC FLAC -8" %s

Other options      :
    Fill up missing offset samples with silence : Yes
    Delete leading and trailing silent blocks : No
    Native Win32 interface for Win NT & 2000


Track  1
     Filename H:\Temp\01 - Never Let Me Down Again.wav

     Pre-gap length  0:00:02.00

     Peak level 89.4 %
     Track quality 99.9 %
     Test CRC 1E573020
     Copy CRC 1E573020
     Copy OK

Track  2
     Filename H:\Temp\02 - The Things You Said.wav

     Pre-gap length  0:00:03.28

     Peak level 87.1 %
     Track quality 100.0 %
     Test CRC 2DA7767D
     Copy CRC 2DA7767D
     Copy OK

Track  3
     Filename H:\Temp\03 - Strangelove.wav

     Pre-gap length  0:00:10.69

     Peak level 79.5 %
     Track quality 100.0 %
     Test CRC E3AD66D8
     Copy CRC E3AD66D8
     Copy OK

Track  4
     Filename H:\Temp\04 - Sacred.wav

     Pre-gap length  0:00:03.28

     Peak level 84.6 %
     Track quality 100.0 %
     Test CRC 08BF4C7F
     Copy CRC 08BF4C7F
     Copy OK

Track  5
     Filename H:\Temp\05 - Little 15.wav

     Pre-gap length  0:00:07.74

     Peak level 74.9 %
     Track quality 100.0 %
     Test CRC 9241F9CB
     Copy CRC 9241F9CB
     Copy OK

Track  6
     Filename H:\Temp\06 - Behind The Wheel.wav

     Pre-gap length  0:00:08.16

     Peak level 95.5 %
     Track quality 100.0 %
     Test CRC 33EE4E45
     Copy CRC 33EE4E45
     Copy OK

Track  7
     Filename H:\Temp\07 - I Want You Now.wav

     Pre-gap length  0:00:03.89

     Peak level 61.0 %
     Track quality 100.0 %
     Test CRC 074E0DA4
     Copy CRC 074E0DA4
     Copy OK

Track  8
     Filename H:\Temp\08 - To Have And To Hold.wav

     Pre-gap length  0:00:03.28

     Peak level 79.2 %
     Track quality 99.9 %
     Test CRC 379AC608
     Copy CRC 379AC608
     Copy OK

Track  9
     Filename H:\Temp\09 - Nothing.wav

     Pre-gap length  0:00:03.28

     Peak level 100.0 %
     Track quality 100.0 %
     Test CRC 297DAB2A
     Copy CRC 297DAB2A
     Copy OK

Track 10
     Filename H:\Temp\10 - Pimpf.wav

     Pre-gap length  0:00:08.78

     Peak level 83.6 %
     Track quality 99.9 %
     Test CRC 13C08EB2
     Copy CRC 13C08EB2
     Copy OK

Track 11
     Filename H:\Temp\11 - Agent Orange.wav

     Pre-gap length  0:00:33.05

     Peak level 75.4 %
     Track quality 100.0 %
     Test CRC 2190F0FF
     Copy CRC 2190F0FF
     Copy OK

Track 12
     Filename H:\Temp\12 - Never Let Me Down Again (Aggro Mix).wav

     Pre-gap length  0:00:03.65

     Peak level 97.4 %
     Track quality 100.0 %
     Test CRC 1D923B7B
     Copy CRC 1D923B7B
     Copy OK

Track 13
     Filename H:\Temp\13 - To Have And To Hold (Spanish Taster).wav

     Pre-gap length  0:00:06.56

     Peak level 84.9 %
     Track quality 99.9 %
     Test CRC BCDA2137
     Copy CRC BCDA2137
     Copy OK

Track 14
     Filename H:\Temp\14 - Pleasure, Little Treasure.wav

     Pre-gap length  0:00:05.72

     Peak level 100.0 %
     Track quality 100.0 %
     Test CRC 97B954EC
     Copy CRC 97B954EC
     Copy OK

No errors occured


End of status report

REM COMMENT "CUETools generated dummy CUE sheet"
FILE "01 - Never Let Me Down Again.flac" WAVE
  TRACK 01 AUDIO
    INDEX 01 00:00:00
FILE "02 - The Things You Said.flac" WAVE
  TRACK 02 AUDIO
    INDEX 01 00:00:00
FILE "03 - Strangelove.flac" WAVE
  TRACK 03 AUDIO
    INDEX 01 00:00:00
FILE "04 - Sacred.flac" WAVE
  TRACK 04 AUDIO
    INDEX 01 00:00:00
FILE "05 - Little 15.flac" WAVE
  TRACK 05 AUDIO
    INDEX 01 00:00:00
FILE "06 - Behind the Wheel.flac" WAVE
  TRACK 06 AUDIO
    INDEX 01 00:00:00
FILE "07 - I Want You Now.flac" WAVE
  TRACK 07 AUDIO
    INDEX 01 00:00:00
FILE "08 - To Have and to Hold.flac" WAVE
  TRACK 08 AUDIO
    INDEX 01 00:00:00
FILE "09 - Nothing.flac" WAVE
  TRACK 09 AUDIO
    INDEX 01 00:00:00
FILE "10 - Pimpf.flac" WAVE
  TRACK 10 AUDIO
    INDEX 01 00:00:00
FILE "11 - Agent Orange.flac" WAVE
  TRACK 11 AUDIO
    INDEX 01 00:00:00
FILE "12 - Never Let Me Down Again (Aggro Mix).flac" WAVE
  TRACK 12 AUDIO
    INDEX 01 00:00:00
FILE "13 - To Have and to Hold (Spanish Taster).flac" WAVE
  TRACK 13 AUDIO
    INDEX 01 00:00:00
FILE "14 - Pleasure, Little Treasure.flac" WAVE
  TRACK 14 AUDIO
    INDEX 01 00:00:00


DOWNLOAD:
All Hosters/Crypters are compatible

Crypted via FileCrypt:
AyeFiles.com [Изображение: 44F33F3BFE.png]
Rapidgator.net [Изображение: B069A400B5.png]
Share-online.biz [Изображение: 58A84AD97A.png]

Crypted via Relink:
AyeFiles.com [Изображение: 269654a37a02509d74f422f110fe19.png]
Rapidgator.net [Изображение: 468bad4c8a18b706556f04a35e4276.png]
Share-online.biz [Изображение: d9328bfc642b03aaf971ec21ed98f0.png]

Password: "slam" (without " ")