RuWarez - Скачать фильмы, игры, книги и многое другое
Depeche Mode - Black Celebration [US] (1986) [FLAC] - Версия для печати

+- RuWarez - Скачать фильмы, игры, книги и многое другое (http://ruwarez.net)
+-- Форум Загрузки (http://ruwarez.net/forumdisplay.php?fid=1)
+--- Форум Музыка (http://ruwarez.net/forumdisplay.php?fid=7)
+--- Темы: Depeche Mode - Black Celebration [US] (1986) [FLAC] (/showthread.php?tid=34)



Depeche Mode - Black Celebration [US] (1986) [FLAC] - Professor Chaos - 04-18-2019

[Изображение: 8xliyiy6.jpg]

Audio Bitrate: ~800 kBit/s (44.1 kHz/16 Bit/s) | Audio Encoder: FLAC
Releaseyear: 1986 | Size: 266,2 MB | Notes: Discogs

Tracklist:
Код:
1 - Black Celebration - 4:55
2 - Fly On The Windscreen - Final - 5:18
3 - A Question Of Lust - 4:20
4 - Sometimes - 1:53
5 - It Doesnt Matter Two - 2:50
6 - A Question Of Time - 4:10
7 - Stripped - 4:16
8 - Here Is The House - 4:15
9 - World Full Of Nothing - 2:50
10 - Dressed In Black - 2:32
11 - New Dress - 3:42
12 - But Not Tonight - 4:15

Log / CUE / NFO:
Код:
Exact Audio Copy V0.99 prebeta 4 from 23. January 2008

EAC extraction logfile from 15. March 2008, 23:40

Depeche Mode / Black Celebration

Used drive  : ASUS    DRW-1608P2S   Adapter: 1  ID: 0

Read mode               : Secure
Utilize accurate stream : Yes
Defeat audio cache      : Yes
Make use of C2 pointers : No

Read offset correction                      : 48
Overread into Lead-In and Lead-Out          : No
Fill up missing offset samples with silence : Yes
Delete leading and trailing silent blocks   : No
Null samples used in CRC calculations       : Yes
Used interface                              : Native Win32 interface for Win NT & 2000
Gap handling                                : Appended to previous track

Used output format              : User Defined Encoder
Selected bitrate                : 768 kBit/s
Quality                         : High
Add ID3 tag                     : No
Command line compressor         : C:\Program Files (x86)\Exact Audio Copy\FLAC\FLAC.EXE
Additional command line options : -8 -V -T "ARTIST=%a" -T "TITLE=%t" -T "ALBUM=%g" -T "DATE=%y" -T "TRACKNUMBER=%n" -T "GENRE=%m" -T "COMMENT=EAC FLAC -8" %s


TOC of the extracted CD

     Track |   Start  |  Length  | Start sector | End sector
    ---------------------------------------------------------
        1  |  0:00.33 |  4:54.25 |        33    |    22107  
        2  |  4:54.58 |  5:21.15 |     22108    |    46197  
        3  | 10:15.73 |  4:22.50 |     46198    |    65897  
        4  | 14:38.48 |  1:54.12 |     65898    |    74459  
        5  | 16:32.60 |  2:52.35 |     74460    |    87394  
        6  | 19:25.20 |  4:12.40 |     87395    |   106334  
        7  | 23:37.60 |  4:13.25 |    106335    |   125334  
        8  | 27:51.10 |  4:20.00 |    125335    |   144834  
        9  | 32:11.10 |  2:48.43 |    144835    |   157477  
       10  | 34:59.53 |  2:34.30 |    157478    |   169057  
       11  | 37:34.08 |  3:43.65 |    169058    |   185847  
       12  | 41:17.73 |  4:14.62 |    185848    |   204959  


Track  1

     Filename H:\Temp\01. Depeche Mode - Black Celebration.wav

     Pre-gap length  0:00:02.33

     Peak level 71.4 %
     Track quality 100.0 %
     Test CRC 0E21D477
     Copy CRC 0E21D477
     Accurately ripped (confidence 19)  [D8F05A53]
     Copy OK

Track  2

     Filename H:\Temp\02. Depeche Mode - Fly On The Windscreen - Final.wav

     Peak level 97.2 %
     Track quality 100.0 %
     Test CRC 2C6450E6
     Copy CRC 2C6450E6
     Accurately ripped (confidence 20)  [24197E9E]
     Copy OK

Track  3

     Filename H:\Temp\03. Depeche Mode - A Question Of Lust.wav

     Peak level 85.9 %
     Track quality 99.9 %
     Test CRC DEC8431E
     Copy CRC DEC8431E
     Accurately ripped (confidence 20)  [365B0F7C]
     Copy OK

Track  4

     Filename H:\Temp\04. Depeche Mode - Sometimes.wav

     Pre-gap length  0:00:01.28

     Peak level 51.8 %
     Track quality 100.0 %
     Test CRC 8B723E84
     Copy CRC 8B723E84
     Accurately ripped (confidence 20)  [4BB7D5CB]
     Copy OK

Track  5

     Filename H:\Temp\05. Depeche Mode - It Doesn't Matter Two.wav

     Pre-gap length  0:00:00.12

     Peak level 54.9 %
     Track quality 100.0 %
     Test CRC CBD4A61E
     Copy CRC CBD4A61E
     Accurately ripped (confidence 20)  [B1C049FA]
     Copy OK

Track  6

     Filename H:\Temp\06. Depeche Mode - A Question Of Time.wav

     Pre-gap length  0:00:02.15

     Peak level 82.3 %
     Track quality 100.0 %
     Test CRC 161F2B17
     Copy CRC 161F2B17
     Accurately ripped (confidence 21)  [EE0AA85A]
     Copy OK

Track  7

     Filename H:\Temp\07. Depeche Mode - Stripped.wav

     Pre-gap length  0:00:00.12

     Peak level 78.3 %
     Track quality 99.9 %
     Test CRC 9BBB2C4B
     Copy CRC 9BBB2C4B
     Accurately ripped (confidence 20)  [7E0C4179]
     Copy OK

Track  8

     Filename H:\Temp\08. Depeche Mode - Here Is The House.wav

     Peak level 88.7 %
     Track quality 99.9 %
     Test CRC FF66C732
     Copy CRC FF66C732
     Accurately ripped (confidence 21)  [2D8AE3A9]
     Copy OK

Track  9

     Filename H:\Temp\09. Depeche Mode - World Full Of Nothing.wav

     Peak level 65.1 %
     Track quality 100.0 %
     Test CRC F1B881F9
     Copy CRC F1B881F9
     Accurately ripped (confidence 21)  [35D4636C]
     Copy OK

Track 10

     Filename H:\Temp\10. Depeche Mode - Dressed In Black.wav

     Pre-gap length  0:00:00.40

     Peak level 61.2 %
     Track quality 99.9 %
     Test CRC 90671516
     Copy CRC 90671516
     Accurately ripped (confidence 21)  [FA29AD64]
     Copy OK

Track 11

     Filename H:\Temp\11. Depeche Mode - New Dress.wav

     Pre-gap length  0:00:01.33

     Peak level 90.6 %
     Track quality 100.0 %
     Test CRC C1EFC915
     Copy CRC C1EFC915
     Accurately ripped (confidence 20)  [E41ACF95]
     Copy OK

Track 12

     Filename H:\Temp\12. Depeche Mode - But Not Tonight.wav

     Pre-gap length  0:00:00.73

     Peak level 66.5 %
     Track quality 100.0 %
     Test CRC B8C56FC8
     Copy CRC B8C56FC8
     Accurately ripped (confidence 21)  [96E409FE]
     Copy OK


All tracks accurately ripped

No errors occurred

End of status report

REM COMMENT "CUETools generated dummy CUE sheet"
FILE "01 - Black Celebration.flac" WAVE
  TRACK 01 AUDIO
    INDEX 01 00:00:00
FILE "02 - Fly on the Windscreen - Final.flac" WAVE
  TRACK 02 AUDIO
    INDEX 01 00:00:00
FILE "03 - A Question of Lust.flac" WAVE
  TRACK 03 AUDIO
    INDEX 01 00:00:00
FILE "04 - Sometimes.flac" WAVE
  TRACK 04 AUDIO
    INDEX 01 00:00:00
FILE "05 - It Doesn't Matter Two.flac" WAVE
  TRACK 05 AUDIO
    INDEX 01 00:00:00
FILE "06 - A Question of Time.flac" WAVE
  TRACK 06 AUDIO
    INDEX 01 00:00:00
FILE "07 - Stripped.flac" WAVE
  TRACK 07 AUDIO
    INDEX 01 00:00:00
FILE "08 - Here Is the House.flac" WAVE
  TRACK 08 AUDIO
    INDEX 01 00:00:00
FILE "09 - World Full of Nothing.flac" WAVE
  TRACK 09 AUDIO
    INDEX 01 00:00:00
FILE "10 - Dressed in Black.flac" WAVE
  TRACK 10 AUDIO
    INDEX 01 00:00:00
FILE "11 - New Dress.flac" WAVE
  TRACK 11 AUDIO
    INDEX 01 00:00:00
FILE "12 - But Not Tonight.flac" WAVE
  TRACK 12 AUDIO
    INDEX 01 00:00:00


DOWNLOAD:
All Hosters/Crypters are compatible

Crypted via FileCrypt:
AyeFiles.com [Изображение: 696FE95761.png]
Rapidgator.net [Изображение: 636387CFD0.png]
Share-online.biz [Изображение: C90605D850.png]

Crypted via Relink:
AyeFiles.com [Изображение: 0d36ed96d96cfe6c4cf62da008f35c.png]
Rapidgator.net [Изображение: 22f28f9e6017d867c067d2ee1d6f42.png]
Share-online.biz [Изображение: 4552ac0cd4f3ac26273ff85ae96f69.png]

Password: "slam" (without " ")