RuWarez - Скачать фильмы, игры, книги и многое другое
Depeche Mode - Black Celebration [UK] (Reissue) (1986/1997) [FLAC] - Версия для печати

+- RuWarez - Скачать фильмы, игры, книги и многое другое (http://ruwarez.net)
+-- Форум Загрузки (http://ruwarez.net/forumdisplay.php?fid=1)
+--- Форум Музыка (http://ruwarez.net/forumdisplay.php?fid=7)
+--- Темы: Depeche Mode - Black Celebration [UK] (Reissue) (1986/1997) [FLAC] (/showthread.php?tid=33)



Depeche Mode - Black Celebration [UK] (Reissue) (1986/1997) [FLAC] - Professor Chaos - 04-18-2019

[Изображение: nzw3axe2.jpg]

Audio Bitrate: ~800 kBit/s (44.1 kHz/16 Bit/s) | Audio Encoder: FLAC
Releaseyear: 1986/1997 | Size: 328,43 MB | Notes: Discogs | Add. Notes: Reissue

Tracklist:
Код:
1 - Black Celebration - 4:57
2 - Fly On The Windscreen (Final) - 5:19
3 - A Question Of Lust - 4:22
4 - Sometimes - 1:54
5 - It Doesnt Matter Two - 2:51
6 - A Question Of Time - 4:09
7 - Stripped - 4:17
8 - Here Is The House - 4:16
9 - World Full Of Nothing - 2:48
10 - Dressed In Black - 2:34
11 - New Dress - 3:42
12 - Breathing In Fumes - 6:07
13 - But Not Tonight (Extended Remix) - 5:13
14 - Black Day - 2:36

Log / CUE / NFO:
Код:
EAC extraction logfile from 6. February 2007, 21:16 for CD
Depeche Mode / Black Celebration

Used drive  : ASUS    DRW-1608P2S   Adapter: 1  ID: 0
Read mode   : Secure with NO C2, accurate stream, disable cache
Read offset correction : 48
Overread into Lead-In and Lead-Out : No

Used output format : C:\Program Files (x86)\Exact Audio Copy\FLAC\FLAC.EXE   (User Defined Encoder)
                     128 kBit/s
                     Additional command line options : -8 -V -T "ARTIST=%a" -T "TITLE=%t" -T "ALBUM=%g" -T "DATE=%y" -T "TRACKNUMBER=%n" -T "GENRE=%m" -T "COMMENT=EAC Flac 1.1.3 -8" %s

Other options      :
    Fill up missing offset samples with silence : Yes
    Delete leading and trailing silent blocks : No
    Installed external ASPI interface


Track  1
     Filename H:\Temp\01 - Black Celebration.wav

     Pre-gap length  0:00:02.42

     Peak level 69.3 %
     Track quality 100.0 %
     Test CRC 70F5B29B
     Copy CRC 70F5B29B
     Copy OK

Track  2
     Filename H:\Temp\02 - Fly On The Windscreen  - Final.wav

     Peak level 89.0 %
     Track quality 100.0 %
     Test CRC B7280456
     Copy CRC B7280456
     Copy OK

Track  3
     Filename H:\Temp\03 - A Question Of Lust.wav

     Peak level 89.0 %
     Track quality 99.9 %
     Test CRC 28AEBE1A
     Copy CRC 28AEBE1A
     Copy OK

Track  4
     Filename H:\Temp\04 - Sometimes.wav

     Peak level 53.1 %
     Track quality 100.0 %
     Test CRC B2C5E3C4
     Copy CRC B2C5E3C4
     Copy OK

Track  5
     Filename H:\Temp\05 - It Doesn't Matter Two.wav

     Peak level 56.3 %
     Track quality 100.0 %
     Test CRC 6FADC289
     Copy CRC 6FADC289
     Copy OK

Track  6
     Filename H:\Temp\06 - A Question Of Time.wav

     Peak level 88.3 %
     Track quality 100.0 %
     Test CRC E7D4B170
     Copy CRC E7D4B170
     Copy OK

Track  7
     Filename H:\Temp\07 - Stripped.wav

     Peak level 80.1 %
     Track quality 100.0 %
     Test CRC 7021A5A1
     Copy CRC 7021A5A1
     Copy OK

Track  8
     Filename H:\Temp\08 - Here Is The House.wav

     Peak level 80.3 %
     Track quality 100.0 %
     Test CRC 522038F7
     Copy CRC 522038F7
     Copy OK

Track  9
     Filename H:\Temp\09 - World Full Of Nothing.wav

     Peak level 60.4 %
     Track quality 100.0 %
     Test CRC 1E30A7F2
     Copy CRC 1E30A7F2
     Copy OK

Track 10
     Filename H:\Temp\10 - Dressed In Black.wav

     Peak level 63.1 %
     Track quality 99.9 %
     Test CRC 77428FC5
     Copy CRC 77428FC5
     Copy OK

Track 11
     Filename H:\Temp\11 - New Dress.wav

     Peak level 83.1 %
     Track quality 99.9 %
     Test CRC 18C4BD39
     Copy CRC 18C4BD39
     Copy OK

Track 12
     Filename H:\Temp\12 - Breathing In Fumes.wav

     Pre-gap length  0:00:00.64

     Peak level 89.0 %
     Track quality 100.0 %
     Test CRC D2ECA632
     Copy CRC D2ECA632
     Copy OK

Track 13
     Filename H:\Temp\13 - But Not Tonight.wav

     Peak level 77.6 %
     Track quality 100.0 %
     Test CRC 06D10567
     Copy CRC 06D10567
     Copy OK

Track 14
     Filename H:\Temp\14 - Black Day.wav

     Peak level 52.1 %
     Track quality 99.9 %
     Test CRC 53E4F424
     Copy CRC 53E4F424
     Copy OK

No errors occured


End of status report

REM COMMENT "CUETools generated dummy CUE sheet"
FILE "01 - Black Celebration.flac" WAVE
  TRACK 01 AUDIO
    INDEX 01 00:00:00
FILE "02 - Fly on the Windscreen  - Final.flac" WAVE
  TRACK 02 AUDIO
    INDEX 01 00:00:00
FILE "03 - A Question of Lust.flac" WAVE
  TRACK 03 AUDIO
    INDEX 01 00:00:00
FILE "04 - Sometimes.flac" WAVE
  TRACK 04 AUDIO
    INDEX 01 00:00:00
FILE "05 - It Doesn't Matter Two.flac" WAVE
  TRACK 05 AUDIO
    INDEX 01 00:00:00
FILE "06 - A Question of Time.flac" WAVE
  TRACK 06 AUDIO
    INDEX 01 00:00:00
FILE "07 - Stripped.flac" WAVE
  TRACK 07 AUDIO
    INDEX 01 00:00:00
FILE "08 - Here Is the House.flac" WAVE
  TRACK 08 AUDIO
    INDEX 01 00:00:00
FILE "09 - World Full of Nothing.flac" WAVE
  TRACK 09 AUDIO
    INDEX 01 00:00:00
FILE "10 - Dressed in Black.flac" WAVE
  TRACK 10 AUDIO
    INDEX 01 00:00:00
FILE "11 - New Dress.flac" WAVE
  TRACK 11 AUDIO
    INDEX 01 00:00:00
FILE "12 - Breathing in Fumes.flac" WAVE
  TRACK 12 AUDIO
    INDEX 01 00:00:00
FILE "13 - But Not Tonight.flac" WAVE
  TRACK 13 AUDIO
    INDEX 01 00:00:00
FILE "14 - Black Day.flac" WAVE
  TRACK 14 AUDIO
    INDEX 01 00:00:00


DOWNLOAD:
All Hosters/Crypters are compatible

Crypted via FileCrypt:
AyeFiles.com [Изображение: BD026EC10C.png]
Rapidgator.net [Изображение: BD026EC10C.png]
Share-online.biz [Изображение: 90A607916D.png]

Crypted via Relink:
AyeFiles.com [Изображение: 1a5452c65681818d96e25a56fdabc7.png]
Rapidgator.net [Изображение: b87cd9b062264c9a68d5f8d233a99c.png]
Share-online.biz [Изображение: 769b3fb625a004b800d3fafbca3fbd.png]

Password: "slam" (without " ")