RuWarez - Скачать фильмы, игры, книги и многое другое
Depeche Mode - The Singles 81 - 85 (1985) [FLAC] - Версия для печати

+- RuWarez - Скачать фильмы, игры, книги и многое другое (http://ruwarez.net)
+-- Форум Загрузки (http://ruwarez.net/forumdisplay.php?fid=1)
+--- Форум Музыка (http://ruwarez.net/forumdisplay.php?fid=7)
+--- Темы: Depeche Mode - The Singles 81 - 85 (1985) [FLAC] (/showthread.php?tid=31)



Depeche Mode - The Singles 81 - 85 (1985) [FLAC] - Professor Chaos - 04-18-2019

[Изображение: 3jmv3k7s.jpg]

Audio Bitrate: ~800 kBit/s (44.1 kHz/16 Bit/s) | Audio Encoder: FLAC
Releaseyear: 1985 | Size: 351,4 MB | Notes: Discogs

Tracklist:
Код:
1  Dreaming Of Me  3:44
2  New Life  3:43
3  Just Cant Get Enough  3:37
4  See You  3:52
5  The Meaning Of Love  3:05
6  Leave In Silence  3:58
7  Get The Balance Right  3:11
8  Everything Counts  3:57
9  Love In Itself  3:58
10  People Are People  3:43
11  Master And Servant  3:50
12  Blasphemous Rumours  5:07
13  Somebody  4:21
14  Shake The Disease  4:46
15  Its Called A Heart  3:48

Log / CUE / NFO:
Код:
EAC extraction logfile from 24. November 2007, 22:57 for CD
Depeche Mode / The Singles 81 -> 85

Used drive  : PLEXTOR DVDR   PX-760A   Adapter: 1  ID: 0
Read mode   : Secure with NO C2, accurate stream, disable cache
Read offset correction : 30
Overread into Lead-In and Lead-Out : No

Used output format : Internal WAV Routines
                    44.100 Hz; 16 Bit; Stereo

Other options      :
   Fill up missing offset samples with silence : Yes
   Delete leading and trailing silent blocks : No
   Native Win32 interface for Win NT & 2000


Track  1
    Filename H:\Temp\01 - Dreaming Of Me.wav

    Pre-gap length  0:00:02.02

    Peak level 100.0 %
    Track quality 100.0 %
    Test CRC 3FDCB4CB
    Copy CRC 3FDCB4CB
    Copy OK

Track  2
    Filename H:\Temp\02 - New Life.wav

    Peak level 95.5 %
    Track quality 100.0 %
    Test CRC 2233420D
    Copy CRC 2233420D
    Copy OK

Track  3
    Filename H:\Temp\03 - Just Can't Get Enough.wav

    Peak level 93.8 %
    Track quality 100.0 %
    Test CRC 32FF2AB7
    Copy CRC 32FF2AB7
    Copy OK

Track  4
    Filename H:\Temp\04 - See You.wav

    Peak level 100.0 %
    Track quality 99.9 %
    Test CRC 0943C331
    Copy CRC 0943C331
    Copy OK

Track  5
    Filename H:\Temp\05 - The Meaning Of Love.wav

    Peak level 95.5 %
    Track quality 100.0 %
    Test CRC 79E78D41
    Copy CRC 79E78D41
    Copy OK

Track  6
    Filename H:\Temp\06 - Leave In Silence.wav

    Peak level 100.0 %
    Track quality 100.0 %
    Test CRC 8C64B9A9
    Copy CRC 8C64B9A9
    Copy OK

Track  7
    Filename H:\Temp\07 - Get The Balance Right.wav

    Peak level 98.4 %
    Track quality 100.0 %
    Test CRC 46D7872F
    Copy CRC 46D7872F
    Copy OK

Track  8
    Filename H:\Temp\08 - Everything Counts.wav

    Peak level 85.6 %
    Track quality 100.0 %
    Test CRC 79902DE8
    Copy CRC 79902DE8
    Copy OK

Track  9
    Filename H:\Temp\09 - Love In Itself.wav

    Peak level 87.5 %
    Track quality 100.0 %
    Test CRC 9B4D6084
    Copy CRC 9B4D6084
    Copy OK

Track 10
    Filename H:\Temp\10 - People Are People.wav

    Peak level 85.3 %
    Track quality 100.0 %
    Test CRC CBD4E04E
    Copy CRC CBD4E04E
    Copy OK

Track 11
    Filename H:\Temp\11 - Master And Servant.wav

    Peak level 90.4 %
    Track quality 100.0 %
    Test CRC A3728226
    Copy CRC A3728226
    Copy OK

Track 12
    Filename H:\Temp\12 - Blasphemous Rumours.wav

    Peak level 100.0 %
    Track quality 100.0 %
    Test CRC EA9E9D57
    Copy CRC EA9E9D57
    Copy OK

Track 13
    Filename H:\Temp\13 - Somebody.wav

    Peak level 68.3 %
    Track quality 99.9 %
    Test CRC 4DC9F0DC
    Copy CRC 4DC9F0DC
    Copy OK

Track 14
    Filename H:\Temp\14 - Shake The Disease.wav

    Peak level 80.5 %
    Track quality 100.0 %
    Test CRC 8E6C8034
    Copy CRC 8E6C8034
    Copy OK

Track 15
    Filename H:\Temp\15 - It's Called A Heart.wav

    Peak level 94.3 %
    Track quality 100.0 %
    Test CRC 8C9D406A
    Copy CRC 8C9D406A
    Copy OK

No errors occured


End of status report

REM COMMENT "CUETools generated dummy CUE sheet"
FILE "01 - Dreaming of Me.flac" WAVE
 TRACK 01 AUDIO
   INDEX 01 00:00:00
FILE "02 - New Life.flac" WAVE
 TRACK 02 AUDIO
   INDEX 01 00:00:00
FILE "03 - Just Can't Get Enough.flac" WAVE
 TRACK 03 AUDIO
   INDEX 01 00:00:00
FILE "04 - See You.flac" WAVE
 TRACK 04 AUDIO
   INDEX 01 00:00:00
FILE "05 - The Meaning of Love.flac" WAVE
 TRACK 05 AUDIO
   INDEX 01 00:00:00
FILE "06 - Leave in Silence.flac" WAVE
 TRACK 06 AUDIO
   INDEX 01 00:00:00
FILE "07 - Get the Balance Right.flac" WAVE
 TRACK 07 AUDIO
   INDEX 01 00:00:00
FILE "08 - Everything Counts.flac" WAVE
 TRACK 08 AUDIO
   INDEX 01 00:00:00
FILE "09 - Love in, Itself.flac" WAVE
 TRACK 09 AUDIO
   INDEX 01 00:00:00
FILE "10 - People Are People.flac" WAVE
 TRACK 10 AUDIO
   INDEX 01 00:00:00
FILE "11 - Master and Servant.flac" WAVE
 TRACK 11 AUDIO
   INDEX 01 00:00:00
FILE "12 - Blasphemous Rumours.flac" WAVE
 TRACK 12 AUDIO
   INDEX 01 00:00:00
FILE "13 - Somebody.flac" WAVE
 TRACK 13 AUDIO
   INDEX 01 00:00:00
FILE "14 - Shake the Disease.flac" WAVE
 TRACK 14 AUDIO
   INDEX 01 00:00:00
FILE "15 - It's Called a Heart.flac" WAVE
 TRACK 15 AUDIO
   INDEX 01 00:00:00


DOWNLOAD:
All Hosters/Crypters are compatible

Crypted via FileCrypt:
AyeFiles.com [Изображение: 06878FEB16.png]
Rapidgator.net [Изображение: 798F97DDFC.png]
Share-online.biz [Изображение: 4AAD9998A4.png]

Crypted via Relink:
AyeFiles.com [Изображение: 155cbaeabcc7f7db0a6c58494bfbab.png]
Rapidgator.net [Изображение: 8011954aad55e22cc849ce3c24de1b.png]
Share-online.biz [Изображение: 2188925591c53463431ad13c256061.png]

Password: "slam" (without " ")